Registration on the site is temporarily disabled

The Modern Jazz Quartet - Jazz Dialogue (1965) [Cool, Bop]; APE (image+.cue)

Chamber Jazz, Improvised Music, Avant-Garde Crossover
User avatar
Mike1985
Uploader
Posts: 50164
Joined: 24 Jan 2016, 16:51

The Modern Jazz Quartet - Jazz Dialogue (1965) [Cool, Bop]; APE (image+.cue)

Unread postby Mike1985 » 04 Sep 2016, 17:27


Artist: The Modern Jazz Quartet
Album: Jazz Dialogue
Genre: Cool, Bop
Released: 1965
Quality: APE (image+.cue)
Tracklist:
  1. Home
  2. Django
  3. One Never Knows
  4. Animal Dance
  5. Intima
  6. The Golden Striker
  7. Ralph's New Blues

DOWNLOAD FROM FILECAT.NET >>>
User avatar
MagnificentGoldberg
Posts: 9
Joined: 16 May 2019, 18:06

Re: The Modern Jazz Quartet - Jazz Dialogue (1965) [Cool, Bop]; APE (image+.cue)

Unread postby MagnificentGoldberg » 30 Jan 2020, 09:03

I'm afraid there's something wrong with the .cue sheet on this album; it only has index entries for the start of each track, not the end points. Can you fix that, please?

Al
User avatar
Mike1985
Uploader
Posts: 50164
Joined: 24 Jan 2016, 16:51

Re: The Modern Jazz Quartet - Jazz Dialogue (1965) [Cool, Bop]; APE (image+.cue)

Unread postby Mike1985 » 31 Jan 2020, 15:58

MagnificentGoldberg wrote:Al

Code: Select all

REM GENRE Jazz
REM DATE 2002
REM DISCID 4A07E507
REM COMMENT "ExactAudioCopy v0.99pb4"
PERFORMER "The Modern Jazz Quartet"
TITLE "Jazz Dialogue"
FILE "The Modern Jazz Quartet - Jazz Dialogue.wav" WAVE
  TRACK 01 AUDIO
    TITLE "Home"
    PERFORMER "The Modern Jazz Quartet"
    INDEX 01 00:00:00
  TRACK 02 AUDIO
    TITLE "Django"
    PERFORMER "The Modern Jazz Quartet"
    INDEX 01 02:52:37
  TRACK 03 AUDIO
    TITLE "One Never Knows"
    PERFORMER "The Modern Jazz Quartet"
    INDEX 01 08:59:35
  TRACK 04 AUDIO
    TITLE "Animal Dance"
    PERFORMER "The Modern Jazz Quartet"
    INDEX 01 13:15:01
  TRACK 05 AUDIO
    TITLE "Intima"
    PERFORMER "The Modern Jazz Quartet"
    INDEX 01 16:44:73
  TRACK 06 AUDIO
    TITLE "The Golden Striker"
    PERFORMER "The Modern Jazz Quartet"
    INDEX 01 21:59:64
  TRACK 07 AUDIO
    TITLE "Ralph's New Blues"
    PERFORMER "The Modern Jazz Quartet"
    INDEX 01 27:38:53
User avatar
MagnificentGoldberg
Posts: 9
Joined: 16 May 2019, 18:06

Re: The Modern Jazz Quartet - Jazz Dialogue (1965) [Cool, Bop]; APE (image+.cue)

Unread postby MagnificentGoldberg » 02 Feb 2020, 22:27

Thanks, but that's what's in the cue file I've got, but Foobar can't find the tracks.

The cue file for other albums looks like this:

REM GENRE Jazz
REM DATE 2009
REM DISCID 140CB314
REM COMMENT "ExactAudioCopy v1.3"
PERFORMER "Sam Taylor"
TITLE "Kayo Blues Best"
REM COMPOSER ""
FILE "Sam Taylor - Kayo Blues Best.flac" WAVE
TRACK 01 AUDIO
TITLE "Toukyou Blues"
PERFORMER "Sam Taylor"
REM COMPOSER ""
INDEX 01 00:00:00
TRACK 02 AUDIO
TITLE "Yanagase Blues"
PERFORMER "Sam Taylor"
REM COMPOSER ""
INDEX 00 02:57:57
INDEX 01 02:59:64
TRACK 03 AUDIO
TITLE "Shinzyuku Blues"
PERFORMER "Sam Taylor"
REM COMPOSER ""
INDEX 00 05:34:27
INDEX 01 05:36:34
TRACK 04 AUDIO
TITLE "Hakodate Blues"
PERFORMER "Sam Taylor"
REM COMPOSER ""
INDEX 00 08:12:20
INDEX 01 08:13:64
TRACK 05 AUDIO
TITLE "Your Blues"
PERFORMER "Sam Taylor"
REM COMPOSER ""
INDEX 00 10:27:41
INDEX 01 10:29:10
TRACK 06 AUDIO
TITLE "Ginza Blues"
PERFORMER "Sam Taylor"
REM COMPOSER ""
INDEX 00 13:53:30
INDEX 01 13:55:37
TRACK 07 AUDIO
TITLE "Blues Amusement"
PERFORMER "Sam Taylor"
REM COMPOSER ""
INDEX 00 16:32:05
INDEX 01 16:34:11
TRACK 08 AUDIO
TITLE "Blues Thought The Bridge"
PERFORMER "Sam Taylor"
REM COMPOSER ""
INDEX 00 19:13:11
INDEX 01 19:15:18
TRACK 09 AUDIO
TITLE "Sanya Blues"
PERFORMER "Sam Taylor"
REM COMPOSER ""
INDEX 00 21:49:11
INDEX 01 21:51:55
TRACK 10 AUDIO
TITLE "Woman Blues"
PERFORMER "Sam Taylor"
REM COMPOSER ""
INDEX 00 24:13:12
INDEX 01 24:14:56
TRACK 11 AUDIO
TITLE "Farewell Blues"
PERFORMER "Sam Taylor"
REM COMPOSER ""
INDEX 00 26:59:57
INDEX 01 27:01:63
TRACK 12 AUDIO
TITLE "Blues Night Fog"
PERFORMER "Sam Taylor"
REM COMPOSER ""
INDEX 00 30:23:05
INDEX 01 30:25:11
TRACK 13 AUDIO
TITLE "Shi Blues"
PERFORMER "Sam Taylor"
REM COMPOSER ""
INDEX 00 32:54:30
INDEX 01 32:56:36
TRACK 14 AUDIO
TITLE "Red And Black Blues"
PERFORMER "Sam Taylor"
REM COMPOSER ""
INDEX 00 35:39:58
INDEX 01 35:42:27
TRACK 15 AUDIO
TITLE "Syouwa Blues"
PERFORMER "Sam Taylor"
REM COMPOSER ""
INDEX 00 38:21:17
INDEX 01 38:23:61
TRACK 16 AUDIO
TITLE "Trance Blues"
PERFORMER "Sam Taylor"
REM COMPOSER ""
INDEX 00 40:47:00
INDEX 01 40:49:06
TRACK 17 AUDIO
TITLE "Hatoba Woman Blues"
PERFORMER "Sam Taylor"
REM COMPOSER ""
INDEX 00 43:16:36
INDEX 01 43:19:05
TRACK 18 AUDIO
TITLE "Nakanoshima Blues"
PERFORMER "Sam Taylor"
REM COMPOSER ""
INDEX 00 45:47:43
INDEX 01 45:49:50
TRACK 19 AUDIO
TITLE "Nishiumi Blues"
PERFORMER "Sam Taylor"
REM COMPOSER ""
INDEX 00 48:18:55
INDEX 01 48:21:24
TRACK 20 AUDIO
TITLE "Minatotyou Blues"
PERFORMER "Sam Taylor"
REM COMPOSER ""
INDEX 00 51:11:21
INDEX 01 51:13:65

The file contains what must be start AND END points for each track.

Al

Return to “Modern Creative, Third Stream (lossless - FLAC, APE, etc.)”